Set as default Homepage|Bookmark
 
 
» » Paisa Vasool (2017) Telugu - 700MB - 1CDRip - HDTV-Rip - XviD - MP3-TMV
Advertise

Paisa Vasool (2017) Telugu - 700MB - 1CDRip - HDTV-Rip - XviD - MP3-TMV

Author: wroser on 31-12-2017, 21:42
Paisa Vasool (2017) Telugu - 700MB - 1CDRip - HDTV-Rip - XviD - MP3-TMV





General
Format                      : AVI
Format/Info                 : Audio Video Interleave
File size                   : 697 MiB
Duration                    : 2 h 10 min
Overall bit rate mode       : Variable
Overall bit rate            : 748 kb/s

Video
ID                          : 0
Format                      : MPEG-4 Visual
Format profile              : Advanced [email protected]
Format settings, BVOP       : 2
Format settings, QPel       : No
Format settings, GMC        : No warppoints
Format settings, Matrix     : Default (H.263)
Codec ID                    : XVID
Codec ID/Hint               : XviD
Duration                    : 2 h 10 min
Bit rate                    : 645 kb/s
Width                       : 704 pixels
Height                      : 296 pixels
Display aspect ratio        : 2.40:1
Frame rate                  : 25.000 FPS
Color space                 : YUV
Chroma subsampling          : 4:2:0
Bit depth                   : 8 bits
Scan type                   : Progressive
Compression mode            : Lossy
Bits/(Pixel*Frame)          : 0.124
Stream size                 : 601 MiB (86%)
Writing library             : XviD 67

Audio
ID                          : 1
Format                      : MPEG Audio
Format version              : Version 1
Format profile              : Layer 3
Mode                        : Joint stereo
Mode extension              : MS Stereo
Codec ID                    : 55
Codec ID/Hint               : MP3
Duration                    : 2 h 10 min
Bit rate mode               : Variable
Bit rate                    : 96.0 kb/s
Channel(s)                  : 2 channels
Sampling rate               : 32.0 kHz
Compression mode            : Lossy
Stream size                 : 87.0 MiB (12%)
Alignment                   : Aligned on interleaves
Interleave, duration        : 36  ms (0.90 video frame)
Interleave, preload duratio : 203  ms
Writing library             : LAME3.99r
Encoding settings           : -m j -V 4 -q 3 -lowpass 15.1 --abr 96




Paisa Vasool (2017) Telugu - 700MB - 1CDRip - HDTV-Rip - XviD - MP3-TMVPaisa Vasool (2017) Telugu - 700MB - 1CDRip - HDTV-Rip - XviD - MP3-TMVPaisa Vasool (2017) Telugu - 700MB - 1CDRip - HDTV-Rip - XviD - MP3-TMVPaisa Vasool (2017) Telugu - 700MB - 1CDRip - HDTV-Rip - XviD - MP3-TMVPaisa Vasool (2017) Telugu - 700MB - 1CDRip - HDTV-Rip - XviD - MP3-TMVPaisa Vasool (2017) Telugu - 700MB - 1CDRip - HDTV-Rip - XviD - MP3-TMV




SINGLE DIRECT FAST LINKS


https://www.heroupload.com/a41c098315b9808b/Paisa.Vasool.2017.Telugu.HDTV-Rip.XviD.700MB.MP3-TMV.avi



http://filefloater.com/9jv/Paisa.Vasool.2017.Telugu.HDTV-Rip.XviD.700MB.MP3-TMV.avi


Теги: Paisa

Dear visitor, you are browsing our website as Guest.
We strongly recommend you to register and login to view hidden contents.

Comments:

Add Comments