Set as default Homepage|Bookmark
 
 
» » 10 [TEN] (2017) Telugu (Original) - 1080p - WEB-HD - AVC - AAC-TMV
Advertise

10 [TEN] (2017) Telugu (Original) - 1080p - WEB-HD - AVC - AAC-TMV

Author: wroser on 31-12-2017, 17:59
10 [TEN] (2017) Telugu (Original) - 1080p - WEB-HD - AVC - AAC-TMV





General
Format                      : MPEG-4
Format profile              : Base Media
Codec ID                    : isom (isom/iso2/avc1/mp41)
File size                   : 3.26 GiB
Duration                    : 2 h 22 min
Overall bit rate            : 3 274 kb/s
Writing application         : Lavf56.25.101

Video
ID                          : 1
Format                      : AVC
Format/Info                 : Advanced Video Codec
Format profile              : [email protected]
Format settings, CABAC      : Yes
Format settings, RefFrames  : 2 frames
Codec ID                    : avc1
Codec ID/Info               : Advanced Video Coding
Duration                    : 2 h 22 min
Bit rate                    : 3 143 kb/s
Width                       : 1 920 pixels
Height                      : 1 080 pixels
Display aspect ratio        : 16:9
Frame rate mode             : Constant
Frame rate                  : 24.000 FPS
Color space                 : YUV
Chroma subsampling          : 4:2:0
Bit depth                   : 8 bits
Scan type                   : Progressive
Bits/(Pixel*Frame)          : 0.063
Stream size                 : 3.13 GiB (96%)
Color range                 : Limited
Color primaries             : BT.709
Transfer characteristics    : BT.709
Matrix coefficients         : BT.709

Audio
ID                          : 2
Format                      : AAC
Format/Info                 : Advanced Audio Codec
Format profile              : LC
Codec ID                    : 40
Duration                    : 2 h 22 min
Bit rate mode               : Constant
Bit rate                    : 126 kb/s
Channel(s)                  : 2 channels
Channel positions           : Front: L R
Sampling rate               : 44.1 kHz
Frame rate                  : 43.066 FPS (1024 SPF)
Compression mode            : Lossy
Stream size                 : 128 MiB (4%)
Default                     : Yes
Alternate group             : 1




10 [TEN] (2017) Telugu (Original) - 1080p - WEB-HD - AVC - AAC-TMV10 [TEN] (2017) Telugu (Original) - 1080p - WEB-HD - AVC - AAC-TMV10 [TEN] (2017) Telugu (Original) - 1080p - WEB-HD - AVC - AAC-TMV10 [TEN] (2017) Telugu (Original) - 1080p - WEB-HD - AVC - AAC-TMV10 [TEN] (2017) Telugu (Original) - 1080p - WEB-HD - AVC - AAC-TMV10 [TEN] (2017) Telugu (Original) - 1080p - WEB-HD - AVC - AAC-TMV




SINGLE DIRECT FAST LINKS
https://www.heroupload.com/7873392a76463afb/10.TEN.2017.Telugu.Original.WEB-HD.1080p.AVC.AAC-TMV.mp4


http://filefloater.com/46w/10.TEN.2017.Telugu.Original.WEB-HD.1080p.AVC.AAC-TMV.mp4

1GB LINKS

https://www.heroupload.com/4c505c2c43a75958/10.TEN.2017.Telugu.Original.WEB-HD.1080p.AVC.AAC-TMV.part1.rar
https://www.heroupload.com/0c119034756695e2/10.TEN.2017.Telugu.Original.WEB-HD.1080p.AVC.AAC-TMV.part2.rar
https://www.heroupload.com/c4e54353c2eb7c83/10.TEN.2017.Telugu.Original.WEB-HD.1080p.AVC.AAC-TMV.part3.rar
https://www.heroupload.com/b94903d62ba5b26a/10.TEN.2017.Telugu.Original.WEB-HD.1080p.AVC.AAC-TMV.part4.rar



http://filefloater.com/46x/10.TEN.2017.Telugu.Original.WEB-HD.1080p.AVC.AAC-TMV.part1.rar
http://filefloater.com/46y/10.TEN.2017.Telugu.Original.WEB-HD.1080p.AVC.AAC-TMV.part2.rar
http://filefloater.com/46z/10.TEN.2017.Telugu.Original.WEB-HD.1080p.AVC.AAC-TMV.part3.rar
http://filefloater.com/9ja/10.TEN.2017.Telugu.Original.WEB-HD.1080p.AVC.AAC-TMV.part4.rar


Теги: 10

Dear visitor, you are browsing our website as Guest.
We strongly recommend you to register and login to view hidden contents.

Comments:

Add Comments