Set as default Homepage|Bookmark
 
 
» » 10 [TEN] (2017) Telugu (Original) - 720p - WEB-HD - AVC - AAC-TMV
Advertise

10 [TEN] (2017) Telugu (Original) - 720p - WEB-HD - AVC - AAC-TMV

Author: wroser on 31-12-2017, 17:57
10 [TEN] (2017) Telugu (Original) - 720p - WEB-HD - AVC - AAC-TMV





General
Format                      : MPEG-4
Format profile              : Base Media / Version 2
Codec ID                    : mp42 (isom/mp42)
File size                   : 1.76 GiB
Duration                    : 2 h 22 min
Overall bit rate mode       : Variable
Overall bit rate            : 1 761 kb/s
Encoded date                : UTC 2017-12-30 13:55:14
Tagged date                 : UTC 2017-12-30 13:55:14
gsst                        : 0
gstd                        : 8558550

Video
ID                          : 1
Format                      : AVC
Format/Info                 : Advanced Video Codec
Format profile              : [email protected]
Format settings, CABAC      : Yes
Format settings, RefFrames  : 3 frames
Codec ID                    : avc1
Codec ID/Info               : Advanced Video Coding
Duration                    : 2 h 22 min
Bit rate                    : 1 633 kb/s
Width                       : 1 280 pixels
Height                      : 720 pixels
Display aspect ratio        : 16:9
Frame rate mode             : Constant
Frame rate                  : 24.000 FPS
Color space                 : YUV
Chroma subsampling          : 4:2:0
Bit depth                   : 8 bits
Scan type                   : Progressive
Bits/(Pixel*Frame)          : 0.074
Stream size                 : 1.63 GiB (93%)
Title                       : ISO Media file produced by Google Inc. Created on: 12/30/2017.
Encoded date                : UTC 2017-12-30 13:55:14
Tagged date                 : UTC 2017-12-30 13:55:14
Color range                 : Limited
Color primaries             : BT.709
Transfer characteristics    : BT.709
Matrix coefficients         : BT.709

Audio
ID                          : 2
Format                      : AAC
Format/Info                 : Advanced Audio Codec
Format profile              : LC
Codec ID                    : 40
Duration                    : 2 h 22 min
Bit rate mode               : Variable
Bit rate                    : 126 kb/s
Channel(s)                  : 2 channels
Channel positions           : Front: L R
Sampling rate               : 44.1 kHz
Frame rate                  : 43.066 FPS (1024 SPF)
Compression mode            : Lossy
Stream size                 : 128 MiB (7%)
Title                       : ISO Media file produced by Google Inc. Created on: 12/30/2017.
Encoded date                : UTC 2017-12-30 13:55:14
Tagged date                 : UTC 2017-12-30 13:55:14



10 [TEN] (2017) Telugu (Original) - 720p - WEB-HD - AVC - AAC-TMV10 [TEN] (2017) Telugu (Original) - 720p - WEB-HD - AVC - AAC-TMV10 [TEN] (2017) Telugu (Original) - 720p - WEB-HD - AVC - AAC-TMV10 [TEN] (2017) Telugu (Original) - 720p - WEB-HD - AVC - AAC-TMV10 [TEN] (2017) Telugu (Original) - 720p - WEB-HD - AVC - AAC-TMV




SINGLE DIRECT FAST LINKS


https://www.heroupload.com/804d5254557d7bb4/10.TEN.2017.Telugu.Original.WEB-HD.720p.AVC.AAC-TMV.mp4



http://filefloater.com/46v/10.TEN.2017.Telugu.Original.WEB-HD.720p.AVC.AAC-TMV.mp4




Теги: 10

Dear visitor, you are browsing our website as Guest.
We strongly recommend you to register and login to view hidden contents.

Comments:

Add Comments