Set as default Homepage|Bookmark
 
 
» » Nenjil Thunivirundhal (2017) Tamil - 1080p - WEB-HD - AVC - AAC 5.1-MTR
Advertise

Nenjil Thunivirundhal (2017) Tamil - 1080p - WEB-HD - AVC - AAC 5.1-MTR

Author: wroser on 30-11-2017, 22:34
Nenjil Thunivirundhal (2017) Tamil - 1080p - WEB-HD - AVC - AAC 5.1-MTR





General
Format                      : MPEG-4
Format profile              : Base Media
Codec ID                    : isom (isom)
File size                   : 3.59 GiB
Duration                    : 1 h 56 min
Overall bit rate mode       : Variable
Overall bit rate            : 4 405 kb/s
Encoded date                : UTC 2017-11-30 18:43:41
Tagged date                 : UTC 2017-11-30 18:43:41
Writing application         : MkvToMp4 [www.mkvtomp4.ru] version 0.224 (x64)

Video
ID                          : 1
Format                      : AVC
Format/Info                 : Advanced Video Codec
Format profile              : [email protected]
Format settings, CABAC      : Yes
Format settings, RefFrames  : 4 frames
Format settings, GOP        : M=1, N=25
Codec ID                    : avc1
Codec ID/Info               : Advanced Video Coding
Duration                    : 1 h 56 min
Bit rate                    : 4 089 kb/s
Maximum bit rate            : 10.5 Mb/s
Width                       : 1 920 pixels
Height                      : 1 080 pixels
Display aspect ratio        : 16:9
Frame rate mode             : Constant
Frame rate                  : 25.000 FPS
Color space                 : YUV
Chroma subsampling          : 4:2:0
Bit depth                   : 8 bits
Scan type                   : Progressive
Bits/(Pixel*Frame)          : 0.079
Stream size                 : 3.33 GiB (93%)
Writing library             : Zencoder Video Encoding System
Language                    : English
Tagged date                 : UTC 2017-11-30 18:43:48
Color range                 : Limited
Color primaries             : BT.709
Transfer characteristics    : BT.709
Matrix coefficients         : BT.709

Audio
ID                          : 2
Format                      : AAC
Format/Info                 : Advanced Audio Codec
Format profile              : LC
Codec ID                    : 40
Duration                    : 1 h 56 min
Bit rate mode               : Variable
Bit rate                    : 312 kb/s
Maximum bit rate            : 391 kb/s
Channel(s)                  : 2 channels
Channel(s)_Original         : 6 channels
Channel positions           : Front: L C R, Side: L R, LFE
Sampling rate               : 48.0 kHz
Frame rate                  : 46.875 FPS (1024 SPF)
Compression mode            : Lossy
Stream size                 : 260 MiB (7%)
Language                    : English
Default                     : Yes
Alternate group             : 1
Encoded date                : UTC 2017-11-30 18:43:45
Tagged date                 : UTC 2017-11-30 18:43:48



Nenjil Thunivirundhal (2017) Tamil - 1080p - WEB-HD - AVC - AAC 5.1-MTRNenjil Thunivirundhal (2017) Tamil - 1080p - WEB-HD - AVC - AAC 5.1-MTRNenjil Thunivirundhal (2017) Tamil - 1080p - WEB-HD - AVC - AAC 5.1-MTRNenjil Thunivirundhal (2017) Tamil - 1080p - WEB-HD - AVC - AAC 5.1-MTRNenjil Thunivirundhal (2017) Tamil - 1080p - WEB-HD - AVC - AAC 5.1-MTR

SINGLE DIRECT FAST LINKS

http://www.heroupload.com/a41264c5c5e4cfd3/Nenjil.Thunivirundhal.2017.1080p.v2.HD.AVC.MP4.5.1.Tamil-MTR.mp4


1GB LINKS


http://www.heroupload.com/4614541c10b043d7/Nenjil.Thunivirundhal.2017.1080p.v2.HD.AVC.MP4.5.1.Tamil-MTR.part1.rar
http://www.heroupload.com/d8c5232bfaaea28b/Nenjil.Thunivirundhal.2017.1080p.v2.HD.AVC.MP4.5.1.Tamil-MTR.part2.rar
http://www.heroupload.com/cc56559c87abfb68/Nenjil.Thunivirundhal.2017.1080p.v2.HD.AVC.MP4.5.1.Tamil-MTR.part3.rar
http://www.heroupload.com/7edef5121e5da48c/Nenjil.Thunivirundhal.2017.1080p.v2.HD.AVC.MP4.5.1.Tamil-MTR.part4.rar



Теги: Nenjil

Dear visitor, you are browsing our website as Guest.
We strongly recommend you to register and login to view hidden contents.

Comments:

Add Comments