Set as default Homepage|Bookmark
 
 
» » Nenjil Thunivirundhal (2017) Tamil - 720p - WEB-HD - AVC - AAC 5.1-MTR
Advertise

Nenjil Thunivirundhal (2017) Tamil - 720p - WEB-HD - AVC - AAC 5.1-MTR

Author: wroser on 30-11-2017, 22:30
Nenjil Thunivirundhal (2017) Tamil - 720p - WEB-HD - AVC - AAC 5.1-MTR





General
Format                      : MPEG-4
Format profile              : Base Media
Codec ID                    : isom (isom)
File size                   : 1.88 GiB
Duration                    : 1 h 56 min
Overall bit rate mode       : Variable
Overall bit rate            : 2 310 kb/s
Encoded date                : UTC 2017-11-30 18:44:16
Tagged date                 : UTC 2017-11-30 18:44:16

Video
ID                          : 1
Format                      : AVC
Format/Info                 : Advanced Video Codec
Format profile              : [email protected]
Format settings, CABAC      : Yes
Format settings, RefFrames  : 4 frames
Codec ID                    : avc1
Codec ID/Info               : Advanced Video Coding
Duration                    : 1 h 56 min
Bit rate                    : 1 994 kb/s
Maximum bit rate            : 5 351 kb/s
Width                       : 1 280 pixels
Height                      : 720 pixels
Display aspect ratio        : 16:9
Frame rate mode             : Constant
Frame rate                  : 25.000 FPS
Color space                 : YUV
Chroma subsampling          : 4:2:0
Bit depth                   : 8 bits
Scan type                   : Progressive
Bits/(Pixel*Frame)          : 0.087
Stream size                 : 1.62 GiB (86%)
Writing library             : Zencoder Video Encoding System
Language                    : English
Tagged date                 : UTC 2017-11-30 18:44:21
Color range                 : Limited
Color primaries             : BT.709
Transfer characteristics    : BT.709
Matrix coefficients         : BT.709

Audio
ID                          : 2
Format                      : AAC
Format/Info                 : Advanced Audio Codec
Format profile              : LC
Codec ID                    : 40
Duration                    : 1 h 56 min
Bit rate mode               : Variable
Bit rate                    : 312 kb/s
Maximum bit rate            : 391 kb/s
Channel(s)                  : 2 channels
Channel(s)_Original         : 6 channels
Channel positions           : Front: L C R, Side: L R, LFE
Sampling rate               : 48.0 kHz
Frame rate                  : 46.875 FPS (1024 SPF)
Compression mode            : Lossy
Stream size                 : 260 MiB (13%)
Language                    : English
Default                     : Yes
Alternate group             : 1
Encoded date                : UTC 2017-11-30 18:44:18
Tagged date                 : UTC 2017-11-30 18:44:21



Nenjil Thunivirundhal (2017) Tamil - 720p - WEB-HD - AVC - AAC 5.1-MTRNenjil Thunivirundhal (2017) Tamil - 720p - WEB-HD - AVC - AAC 5.1-MTRNenjil Thunivirundhal (2017) Tamil - 720p - WEB-HD - AVC - AAC 5.1-MTRNenjil Thunivirundhal (2017) Tamil - 720p - WEB-HD - AVC - AAC 5.1-MTRNenjil Thunivirundhal (2017) Tamil - 720p - WEB-HD - AVC - AAC 5.1-MTR


SINGLE DIRECT FAST LINKS


http://www.heroupload.com/120b5292c6b2c1a9/Nenjil.Thunivirundhal.2017.720p.v2.HD.AVC.MP4.5.1.Tamil-MTR.mp4



Теги: Nenjil

Dear visitor, you are browsing our website as Guest.
We strongly recommend you to register and login to view hidden contents.

Comments:

Add Comments