Set as default Homepage|Bookmark
 
 
» » Downsizing (2017) TS XViD-BL4CKP34RL
Advertise

Downsizing (2017) TS XViD-BL4CKP34RL

Author: wroser on 31-12-2017, 20:46
Downsizing (2017) TS XViD-BL4CKP34RL






Ripper ...........: J4CKSP4RR0W IMDB Rating.......: 6.1/10
Video Codec.......: XViD Release Date......: 27 December 2017
Audio Codec.......: mp3 Theatre Date......: 22 December 2017
Audio Bitrate.....: 128 kbps Runtime...........: 2hr 08min 10sec
Subtitles.........: n/a Language..........: ENGLISH
Resolution........: 720x336 IMDb URL..........: http://www.imdb.com/title/tt1389072/


DETAILS:


Format : AVI
Format/Info : Audio Video Interleave
File size : 1.46 GiB
Duration : 2h 8mn
Overall bit rate : 1 630 Kbps
Writing library : VirtualDub build 32839/release

Video
ID : 0
Format : MPEG-4 Visual
Format profile : Advanced [email protected]
Format settings, BVOP : 2
Format settings, QPel : Yes
Format settings, GMC : No warppoints
Format settings, Matrix : Default (H.263)
Muxing mode : Packed bitstream
Codec ID : XVID
Codec ID/Hint : XviD
Duration : 2h 8mn
Bit rate : 1 491 Kbps
Width : 720 pixels
Height : 336 pixels
Display aspect ratio : 2.143
Frame rate : 29.970 fps
Color space : YUV
Chroma subsampling : 4:2:0
Bit depth : 8 bits
Scan type : Progressive
Compression mode : Lossy
Bits/(Pixel*Frame) : 0.206
Stream size : 1.33 GiB (91%)
Writing library : XviD 67

Audio
ID : 1
Format : MPEG Audio
Format version : Version 1
Format profile : Layer 3
Mode : Joint stereo
Mode extension : MS Stereo
Codec ID : 55
Codec ID/Hint : MP3
Duration : 2h 8mn
Bit rate mode : Constant
Bit rate : 128 Kbps
Channel(s) : 2 channels
Sampling rate : 48.0 KHz
Compression mode : Lossy
Delay relative to video : 4ms
Stream size : 117 MiB (8%)
Alignment : Split accross interleaves
Interleave, duration : 33 ms (1.00 video frame)




Downsizing (2017) TS XViD-BL4CKP34RLDownsizing (2017) TS XViD-BL4CKP34RLDownsizing (2017) TS XViD-BL4CKP34RLDownsizing (2017) TS XViD-BL4CKP34RLDownsizing (2017) TS XViD-BL4CKP34RL

SINGLE DIRECT FAST LINKS


https://www.heroupload.com/af47ddc366432306/Downsizing.2017.TS.XViD-BL4CKP34RL.avi



http://filefloater.com/9jd/Downsizing.2017.TS.XViD-BL4CKP34RL.avi


Теги: Downsizing

Dear visitor, you are browsing our website as Guest.
We strongly recommend you to register and login to view hidden contents.

Comments:

Add Comments