Set as default Homepage|Bookmark
 
 
» » Jumanji: Welcome to the Jungle (2017) HDTS-Rip x264 [Multi Audio] [Hindi+Tel+Tam+Eng]
Advertise

Jumanji: Welcome to the Jungle (2017) HDTS-Rip x264 [Multi Audio] [Hindi+Tel+Tam+Eng]

Author: wroser on 31-12-2017, 03:45
Jumanji: Welcome to the Jungle (2017) HDTS-Rip x264 [Multi Audio] [Hindi+Tel+Tam+Eng]






General
Format                                   : Matroska
Format version                           : Version 4 / Version 2
File size                                : 1.06 GiB
Duration                                 : 1 h 48 min
Overall bit rate mode                    : Variable
Overall bit rate                         : 1 397 kb/s
Encoded date                             : UTC 2017-12-30 22:26:19
Writing application                      : mkvmerge v17.0.0 ('Be Ur Friend') 64-bit
Writing library                          : libebml v1.3.5 + libmatroska v1.4.8

Video
ID                                       : 1
Format                                   : AVC
Format/Info                              : Advanced Video Codec
Format profile                           : [email protected]
Format settings                          : CABAC / 3 Ref Frames
Format settings, CABAC                   : Yes
Format settings, RefFrames               : 3 frames
Codec ID                                 : V_MPEG4/ISO/AVC
Duration                                 : 1 h 48 min
Bit rate                                 : 951 kb/s
Width                                    : 720 pixels
Height                                   : 324 pixels
Display aspect ratio                     : 2.222
Frame rate mode                          : Constant
Frame rate                               : 29.970 (30000/1001) FPS
Color space                              : YUV
Chroma subsampling                       : 4:2:0
Bit depth                                : 8 bits
Scan type                                : Progressive
Bits/(Pixel*Frame)                       : 0.136
Stream size                              : 741 MiB (68%)
Writing library                          : x264 core 152 r2851bm ba24899
Encoding settings                        : cabac=1 / ref=3 / deblock=1:0:0 / analyse=0x3:0x113 / me=hex / subme=7 / psy=1 / psy_rd=1.00:0.00 / mixed_ref=1 / me_range=16 / chroma_me=1 / trellis=1 / 8x8dct=1 / cqm=0 / deadzone=21,11 / fast_pskip=1 / chroma_qp_offset=-2 / threads=4 / lookahead_threads=4 / sliced_threads=1 / slices=4 / nr=0 / decimate=1 / interlaced=0 / bluray_compat=0 / constrained_intra=0 / bframes=0 / weightp=2 / keyint=250 / keyint_min=25 / scenecut=40 / intra_refresh=0 / rc=crf / mbtree=0 / crf=20.0 / qcomp=0.60 / qpmin=0 / qpmax=69 / qpstep=4 / ip_ratio=1.40 / aq=1:1.00
Language                                 : English
Default                                  : Yes
Forced                                   : No

Audio #1
ID                                       : 2
Format                                   : MPEG Audio
Format version                           : Version 1
Format profile                           : Layer 3
Format settings                          : Joint stereo / MS Stereo
Codec ID                                 : A_MPEG/L3
Codec ID/Hint                            : MP3
Duration                                 : 1 h 48 min
Bit rate mode                            : Variable
Bit rate                                 : 90.0 kb/s
Nominal bit rate                         : 96.0 kb/s
Channel(s)                               : 2 channels
Sampling rate                            : 48.0 kHz
Frame rate                               : 41.667 FPS (1152 SPF)
Compression mode                         : Lossy
Stream size                              : 70.1 MiB (6%)
Writing library                          : LAME3.99r
Encoding settings                        : -m j -V 4 -q 3 -lowpass 15.1 --abr 96
Language                                 : Hindi
Default                                  : No
Forced                                   : No

Audio #2
ID                                       : 3
Format                                   : MPEG Audio
Format version                           : Version 1
Format profile                           : Layer 3
Format settings                          : Joint stereo / MS Stereo
Codec ID                                 : A_MPEG/L3
Codec ID/Hint                            : MP3
Duration                                 : 1 h 48 min
Bit rate mode                            : Variable
Bit rate                                 : 96.0 kb/s
Channel(s)                               : 2 channels
Sampling rate                            : 48.0 kHz
Frame rate                               : 41.667 FPS (1152 SPF)
Compression mode                         : Lossy
Stream size                              : 74.5 MiB (7%)
Writing library                          : LAME3.99r
Encoding settings                        : -m j -V 4 -q 3 -lowpass 15.1 --abr 96
Language                                 : Telugu
Default                                  : No
Forced                                   : No

Audio #3
ID                                       : 4
Format                                   : MPEG Audio
Format version                           : Version 1
Format profile                           : Layer 3
Format settings                          : Joint stereo / MS Stereo
Codec ID                                 : A_MPEG/L3
Codec ID/Hint                            : MP3
Duration                                 : 1 h 48 min
Bit rate mode                            : Constant
Bit rate                                 : 128 kb/s
Channel(s)                               : 2 channels
Sampling rate                            : 44.1 kHz
Frame rate                               : 38.281 FPS (1152 SPF)
Compression mode                         : Lossy
Stream size                              : 99.7 MiB (9%)
Writing library                          : LAME3.98.2
Language                                 : Tamil
Default                                  : No
Forced                                   : No

Audio #4
ID                                       : 5
Format                                   : AAC
Format/Info                              : Advanced Audio Codec
Format profile                           : LC
Codec ID                                 : A_AAC-2
Duration                                 : 1 h 48 min
Bit rate                                 : 128 kb/s
Channel(s)                               : 2 channels
Channel positions                        : Front: L R
Sampling rate                            : 48.0 kHz
Frame rate                               : 46.875 FPS (1024 SPF)
Compression mode                         : Lossy
Stream size                              : 99.6 MiB (9%)
Language                                 : English
Default                                  : Yes
Forced                                   : No


Jumanji: Welcome to the Jungle (2017) HDTS-Rip x264 [Multi Audio] [Hindi+Tel+Tam+Eng]Jumanji: Welcome to the Jungle (2017) HDTS-Rip x264 [Multi Audio] [Hindi+Tel+Tam+Eng]Jumanji: Welcome to the Jungle (2017) HDTS-Rip x264 [Multi Audio] [Hindi+Tel+Tam+Eng]Jumanji: Welcome to the Jungle (2017) HDTS-Rip x264 [Multi Audio] [Hindi+Tel+Tam+Eng]Jumanji: Welcome to the Jungle (2017) HDTS-Rip x264 [Multi Audio] [Hindi+Tel+Tam+Eng]Jumanji: Welcome to the Jungle (2017) HDTS-Rip x264 [Multi Audio] [Hindi+Tel+Tam+Eng]Jumanji: Welcome to the Jungle (2017) HDTS-Rip x264 [Multi Audio] [Hindi+Tel+Tam+Eng]Jumanji: Welcome to the Jungle (2017) HDTS-Rip x264 [Multi Audio] [Hindi+Tel+Tam+Eng]Jumanji: Welcome to the Jungle (2017) HDTS-Rip x264 [Multi Audio] [Hindi+Tel+Tam+Eng]


SINGLE DIRECT FAST LINKS
http://filefloater.com/46o/Jumanji.2017.HDTS-Rip.x264.Multi.Auds.Telugu+Tamil+Hindi+English-Movcr.mkv


https://www.heroupload.com/57cb7679acc54856/Jumanji.2017.HDTS-Rip.x264.Multi.Auds.Telugu+Tamil+Hindi+English-Movcr.mkv


Теги: Jumanji

Dear visitor, you are browsing our website as Guest.
We strongly recommend you to register and login to view hidden contents.

Comments:

Add Comments