Set as default Homepage|Bookmark
 
 
» » The Reluctant Fundamentalist (2012) 720p BluRay x264 Esub [Dual Audio][Hindi+English]
Advertise

The Reluctant Fundamentalist (2012) 720p BluRay x264 Esub [Dual Audio][Hindi+English]

Author: wroser on 30-11-2017, 21:48
The Reluctant Fundamentalist (2012) 720p BluRay x264 Esub [Dual Audio][Hindi+English]







The Reluctant Fundamentalist 2012 720p BluRay x264 Dual Audio [Hindi + English] DD5.0 ~Ranvijay

Thanks To Titan For Hindi Audio

Format                                   : Matroska
Format version                           : Version 4 / Version 2
File size                                : 1.77 GiB
Duration                                 : 2 h 10 min
Overall bit rate                         : 1 945 kb/s
Movie name                               : The Reluctant Fundamentalist 2012 720p BluRay x264 Dual Audio [Hindi + English] DD5.0 ~Ranvijay

Video
ID                                       : 1
Format                                   : AVC
Duration                                 : 2 h 10 min
Bit rate                                 : 1 500 kb/s
Width                                    : 1 280 pixels
Height                                   : 534 pixels
Display aspect ratio                     : 2.40:1
Original display aspect ratio            : 2.40:1
Frame rate mode                          : Constant
Frame rate                               : 23.976 (23976/1000) FPS
Stream size                              : 1.36 GiB (77%)
Title                                    : ~Ranvijay~
Default                                  : Yes
Forced                                   : No

Audio #1
ID                                       : 2
Format                                   : AAC
Format/Info                              : Advanced Audio Codec
Format profile                           : LC
Codec ID                                 : A_AAC
Duration                                 : 2 h 10 min
Bit rate                                 : 224 kb/s
Channel(s)                               : 6 channels
Channel positions                        : Front: L C R, Side: L R, LFE
Sampling rate                            : 48.0 kHz
Frame rate                               : 46.875 FPS (1024 SPF)
Compression mode                         : Lossy
Delay relative to video                  : -43 ms
Stream size                              : 209 MiB (12%)
Title                                    : ~Ranvijay~
Language                                 : English
Default                                  : No
Forced                                   : No

Audio #2
ID                                       : 3
Format                                   : AC-3
Format/Info                              : Audio Coding 3
Format settings, Endianness              : Big
Codec ID                                 : A_AC3
Duration                                 : 2 h 10 min
Bit rate mode                            : Constant
Bit rate                                 : 224 kb/s
Channel(s)                               : 6 channels
Channel positions                        : Front: L C R, Side: L R, LFE
Sampling rate                            : 48.0 kHz
Frame rate                               : 31.250 FPS (1536 SPF)
Bit depth                                : 16 bits
Compression mode                         : Lossy
Delay relative to video                  : 357 ms
Stream size                              : 208 MiB (12%)
Title                                    : ~Ranvijay~
Language                                 : Hindi
Service kind                             : Complete Main
Default                                  : Yes
Forced                                   : No





The Reluctant Fundamentalist (2012) 720p BluRay x264 Esub [Dual Audio][Hindi+English]
The Reluctant Fundamentalist (2012) 720p BluRay x264 Esub [Dual Audio][Hindi+English]
The Reluctant Fundamentalist (2012) 720p BluRay x264 Esub [Dual Audio][Hindi+English]
The Reluctant Fundamentalist (2012) 720p BluRay x264 Esub [Dual Audio][Hindi+English]
The Reluctant Fundamentalist (2012) 720p BluRay x264 Esub [Dual Audio][Hindi+English]
The Reluctant Fundamentalist (2012) 720p BluRay x264 Esub [Dual Audio][Hindi+English]
The Reluctant Fundamentalist (2012) 720p BluRay x264 Esub [Dual Audio][Hindi+English]
The Reluctant Fundamentalist (2012) 720p BluRay x264 Esub [Dual Audio][Hindi+English]
The Reluctant Fundamentalist (2012) 720p BluRay x264 Esub [Dual Audio][Hindi+English]
The Reluctant Fundamentalist (2012) 720p BluRay x264 Esub [Dual Audio][Hindi+English]
The Reluctant Fundamentalist (2012) 720p BluRay x264 Esub [Dual Audio][Hindi+English]
The Reluctant Fundamentalist (2012) 720p BluRay x264 Esub [Dual Audio][Hindi+English]
The Reluctant Fundamentalist (2012) 720p BluRay x264 Esub [Dual Audio][Hindi+English]
The Reluctant Fundamentalist (2012) 720p BluRay x264 Esub [Dual Audio][Hindi+English]

SINGLE DIRECT FAST LINKS

http://www.heroupload.com/b97ad607e3dbe71e/The_Reluctant_Fundamentalist_2012_720p_BluRay_x264_Dual_Audio_[Hindi_+_English]_DD5.0_~Ranvijay.mkv



Теги: The

Dear visitor, you are browsing our website as Guest.
We strongly recommend you to register and login to view hidden contents.

Comments:

Add Comments
Reply
  • Group: Guests
  • ICQ:
  • Registration: --
  • Status:
  • 0 Comment
  • 0 Article
^
I've seen The Reluctant Fundamentalist and it's honestly one of the amazing movies. The best professional resume writers spoke of the amazing acting of Kate Hudson and Riz Ahmed in it. They performed brilliantly.