Set as default Homepage|Bookmark
 
 
» » Ender's Game (2013) 720p BluRay x264 Esub [Dual Audio] [Hindi+English] - 8a8a
Advertise

Ender's Game (2013) 720p BluRay x264 Esub [Dual Audio] [Hindi+English] - 8a8a

Author: wroser on 30-11-2017, 21:40
Ender's Game (2013) 720p BluRay x264 Esub [Dual Audio] [Hindi+English] - 8a8a





Format                      : Matroska
Format version              : Version 4 / Version 2
File size                   : 973 MiB
Duration                    : 1 h 53 min
Overall bit rate            : 1 195 kb/s
Encoded date                : UTC 2017-01-18 10:35:29
Writing application         : mkvmerge v9.6.0 ('Slave To Your Mind') 64bit
Writing library             : libebml v1.3.4 + libmatroska v1.4.5

Video
ID                          : 1
Format                      : AVC
Format/Info                 : Advanced Video Codec
Format profile              : [email protected]
Format settings, CABAC      : Yes
Format settings, RefFrames  : 4 frames
Codec ID                    : V_MPEG4/ISO/AVC
Duration                    : 1 h 53 min
Bit rate                    : 999 kb/s
Width                       : 1 280 pixels
Height                      : 544 pixels
Display aspect ratio        : 2.35:1
Frame rate mode             : Constant
Frame rate                  : 23.976 (24000/1001) FPS
Color space                 : YUV
Chroma subsampling          : 4:2:0
Bit depth                   : 8 bits
Scan type                   : Progressive
Bits/(Pixel*Frame)          : 0.060
Stream size                 : 813 MiB (84%)
Writing library             : x264 core 142 r2479 dd79a61
Encoding settings           : cabac=1 / ref=4 / deblock=1:0:0 / analyse=0x3:0x113 / me=hex / subme=7 / psy=1 / psy_rd=1.00:0.00 / mixed_ref=1 / me_range=16 / chroma_me=1 / trellis=1 / 8x8dct=1 / cqm=0 / deadzone=21,11 / fast_pskip=1 / chroma_qp_offset=-2 / threads=12 / lookahead_threads=2 / sliced_threads=0 / nr=0 / decimate=1 / interlaced=0 / bluray_compat=0 / constrained_intra=0 / bframes=3 / b_pyramid=2 / b_adapt=1 / b_bias=0 / direct=1 / weightb=1 / open_gop=0 / weightp=2 / keyint=240 / keyint_min=24 / scenecut=40 / intra_refresh=0 / rc_lookahead=50 / rc=2pass / mbtree=1 / bitrate=999 / ratetol=1.0 / qcomp=0.60 / qpmin=0 / qpmax=69 / qpstep=4 / cplxblur=20.0 / qblur=0.5 / vbv_maxrate=62500 / vbv_bufsize=78125 / nal_hrd=none / filler=0 / ip_ratio=1.40 / aq=1:1.00
Default                     : Yes
Forced                      : No
Color range                 : Limited
Color primaries             : BT.709
Transfer characteristics    : BT.709
Matrix coefficients         : BT.709

Audio #1
ID                          : 2
Format                      : AAC
Format/Info                 : Advanced Audio Codec
Format profile              : LC
Codec ID                    : A_AAC
Duration                    : 1 h 53 min
Bit rate                    : 128 kb/s
Channel(s)                  : 2 channels
Channel positions           : Front: L R
Sampling rate               : 48.0 kHz
Frame rate                  : 46.875 FPS (1024 SPF)
Compression mode            : Lossy
Delay relative to video     : -21 ms
Stream size                 : 104 MiB (11%)
Language                    : Hindi
Default                     : Yes
Forced                      : No

Audio #2
ID                          : 3
Format                      : AAC
Format/Info                 : Advanced Audio Codec
Format profile              : LC
Codec ID                    : A_AAC
Duration                    : 1 h 53 min
Bit rate                    : 64.3 kb/s
Channel(s)                  : 2 channels
Channel positions           : Front: L R
Sampling rate               : 48.0 kHz
Frame rate                  : 46.875 FPS (1024 SPF)
Compression mode            : Lossy
Delay relative to video     : -21 ms
Stream size                 : 52.3 MiB (5%)
Language                    : English
Default                     : No
Forced                      : No

Text
ID                          : 4
Format                      : UTF-8
Codec ID                    : S_TEXT/UTF8
Codec ID/Info               : UTF-8 Plain Text
Duration                    : 1 h 44 min
Bit rate                    : 110 b/s
Count of elements           : 1477
Stream size                 : 84.3 KiB (0%)
Language                    : English
Default                     : Yes
Forced                      : No




Ender's Game (2013) 720p BluRay x264 Esub [Dual Audio] [Hindi+English] - 8a8aEnder's Game (2013) 720p BluRay x264 Esub [Dual Audio] [Hindi+English] - 8a8aEnder's Game (2013) 720p BluRay x264 Esub [Dual Audio] [Hindi+English] - 8a8a


SINGLE DIRECT FAST LINKS


http://www.heroupload.com/00115b33493152b4/Enders_Games_2013.mkv




Теги: Ender

Dear visitor, you are browsing our website as Guest.
We strongly recommend you to register and login to view hidden contents.

Comments:

Add Comments
Reply
  • Group: Guests
  • ICQ:
  • Registration: --
  • Status:
  • 0 Comment
  • 0 Article
^
I think that to market the movies or any other content,the internet should be fully utilised and that's why I'm supporting it.After finishing some work of the firm which also sells the royalessays writing service review,I'll have a closer look at it.